<?xml version="1.0" standalone="no"?>
<!DOCTYPE svg PUBLIC "-//W3C//DTD SVG 1.1//EN" "http://www.w3.org/Graphics/SVG/1.1/DTD/svg11.dtd">
<svg xmlns="http://www.w3.org/2000/svg">
<defs >
<font id="Gafata" horiz-adv-x="483" ><font-face
    font-family="Gafata"
    units-per-em="1000"
    panose-1="2 0 5 3 0 0 0 2 0 4"
    ascent="921"
    descent="-202"
    alphabetic="0" />
<glyph unicode=" " glyph-name="space" horiz-adv-x="228" />
<glyph unicode="!" glyph-name="exclam" horiz-adv-x="249" d="M147 146H102L92 380L87 671H162L157 380L147 146ZM160 1H88V75H160V1Z" />
<glyph unicode="&quot;" glyph-name="quotedbl" horiz-adv-x="330" d="M91 667H151V613Q151 569 151 552T138 513T118 485T73 447L47 470Q76 508 88 535L91 612V667ZM213 667H274L273 613Q273 539 264 518T208 457Q200 451 196 447L169 470Q198 508 211 535L213 612V667Z" />
<glyph unicode="#" glyph-name="numbersign" horiz-adv-x="633" d="M332 -71L367 118H217L180 -84L119 -71L154 118H45L44 176H165L196 339H89L88 397H207L241 578L301 565L270 397H420L454 578L514 565L483 397H587L588 339H472L441 176H543L544 118H430L393
-84L332 -71ZM259 339L228 176H378L409 339H259Z" />
<glyph unicode="$" glyph-name="dollar" horiz-adv-x="497" d="M229 -97V-7H226Q140 -7 50 22L66 75Q144 46 225 46T341 70T377 160Q377 204 344 228Q301 260 261 273Q201 300 175 312T117 347T72 393T59 449Q59 520 106 562T229 611V714H283V610Q348 605 419
582L406 534Q312 558 270 558Q190 558 159 536T127 457Q127 414 171 386Q202 366 280 333T388 280Q451 236 452 162Q452 15 283 -4V-97H229Z" />
<glyph unicode="%" glyph-name="percent" horiz-adv-x="706" d="M196 -9H131L505 696H569L196 -9ZM222 647T173 647T111 628T98 543T112 452T175 426T236 446T249 531T236 621ZM173 696Q253 696 277 662T301 546T268 420T166 377T72 412T46 528T80 653T173 696ZM582
259T533 259T471 240T458 155T472 64T535 38T596 58T609 143T596 233ZM533 308Q613 308 637 274T661 158T628 32T526 -11T432 24T406 140T440 265T533 308Z" />
<glyph unicode="&amp;" glyph-name="ampersand" horiz-adv-x="600" d="M557 355L560 314L559 302H463Q480 232 480 177T459 85T405 28Q342 -9 275 -9Q184 -9 123 36T61 169Q61 286 152 332Q81 387 81 476T136 612T247 659T340 644L317 591Q291 604 250 604Q187
604 168 575T149 483T182 391T279 352L264 302Q217 302 201 307Q188 302 175 292T146 249T130 170T168 85T275 46Q412 46 412 168Q412 274 399 342Q399 349 518 354L557 355Z" />
<glyph unicode="&apos;" glyph-name="quotesingle" horiz-adv-x="208" d="M91 667H151V613Q151 569 151 552T138 513T118 485T73 447L47 470Q76 508 88 535L91 612V667Z" />
<glyph unicode="(" glyph-name="parenleft" horiz-adv-x="255" d="M118 -89T88 11T58 279T88 545T191 707L217 684Q190 650 183 634T166 590T154 552T144 509T133 448Q124 364 124 268Q124 64 176 -67Q190 -96 217 -133L191 -156Q118 -89 88 11Z" />
<glyph unicode=")" glyph-name="parenright" horiz-adv-x="255" d="M101 552Q85 606 75 628T38 684L64 707Q137 642 167 545T197 280T167 11T64 -156L38 -133Q65 -96 79 -67Q131 64 131 255T101 552Z" />
<glyph unicode="*" glyph-name="asterisk" horiz-adv-x="406" d="M183 552L177 669H230L224 552L333 593L350 543L237 512L310 421L267 390L203 488L139 390L97 421L170 513L57 543L73 593L183 552Z" />
<glyph unicode="+" glyph-name="plus" horiz-adv-x="489" d="M214 509H273V343H435V284H273V124H214V284H54V343H214V509Z" />
<glyph unicode="," glyph-name="comma" horiz-adv-x="215" d="M145 92L146 1L93 -126H44L69 1L70 92H145Z" />
<glyph unicode="-" glyph-name="hyphen" horiz-adv-x="525" d="M72 284V343H453V284H72Z" />
<glyph unicode="." glyph-name="period" horiz-adv-x="223" d="M154 90V0H69V90H154Z" />
<glyph unicode="/" glyph-name="slash" horiz-adv-x="425" d="M23 6L350 741L403 718L77 -17L23 6Z" />
<glyph unicode="0" glyph-name="zero" horiz-adv-x="549" d="M275 661Q330 661 369 644T431 600T465 527Q484 454 484 360T475 211T444 104T379 22T275 -9Q199 -9 159 16Q138 30 123 45T97 86T81 135T71 193Q66 251 66 328Q66 661 275 661ZM413 329L414 403Q414
496 396 533Q362 599 256 599Q183 599 159 536Q137 478 137 397V328V246Q137 184 142 164T155 124T173 93T200 72Q229 52 289 52Q336 52 368 86Q390 109 404 171Q413 213 413 329Z" />
<glyph unicode="1" glyph-name="one" horiz-adv-x="355" d="M191 0V586L58 506L31 551L191 648H259L258 0H191Z" />
<glyph unicode="2" glyph-name="two" horiz-adv-x="476" d="M424 56V0H53V23Q53 174 204 295Q287 362 309 392T331 481T304 563T215 586T80 555L63 612Q148 648 227 648T354 603T402 484Q402 441 384 398Q378 383 358 360T326 326T291 294T243 249T210 220T186
196T164 171T149 148T135 120Q125 81 124 56H424Z" />
<glyph unicode="3" glyph-name="three" horiz-adv-x="473" d="M186 316H159V364H186Q193 365 208 366T230 367T248 369T265 373T278 380Q318 398 318 488Q318 553 287 579T202 605T86 580L67 629Q140 661 217 661T340 618Q386 574 386 487Q386 441 370 401T322
348Q413 313 413 183Q413 93 357 40T210 -13T43 33L69 84Q136 45 214 45T323 85Q344 113 344 172T323 269T264 312T186 316Z" />
<glyph unicode="4" glyph-name="four" horiz-adv-x="465" d="M356 384V237H424V181H356V0H288V181H46V252Q46 306 75 354L274 659L324 627L143 347Q122 315 118 302T114 257V237L288 238V384H356Z" />
<glyph unicode="5" glyph-name="five" d="M430 113T379 53T236 -7T50 47L73 104Q157 55 230 55T331 87T359 203T328 316T232 345H88V648H393V591H156L153 409H244Q430 409 430 214Q430 113 379 53Z" />
<glyph unicode="6" glyph-name="six" horiz-adv-x="509" d="M294 380Q369 380 411 338T453 187Q453 85 371 25Q326 -8 263 -8Q148 -8 107 64T65 307T116 568T270 659Q351 659 437 607L405 557Q337 597 274 597Q193 597 165 541T136 335Q139 336 156 344T179 355T202
364T230 372Q265 380 294 380ZM238 320T214 312T163 291T136 279Q136 137 173 93Q207 52 279 52Q385 52 385 184Q385 266 360 293T286 320Z" />
<glyph unicode="7" glyph-name="seven" horiz-adv-x="453" d="M118 604V519H47V660H409L424 613L368 498Q285 330 248 231T190 -9H118Q137 147 215 321L350 604H118Z" />
<glyph unicode="8" glyph-name="eight" horiz-adv-x="514" d="M169 -9T115 36T61 169Q61 227 87 268T156 332Q81 383 81 483Q81 540 112 582T182 641T256 659Q433 659 433 481Q433 432 412 393T357 330Q453 281 453 169Q453 110 418 68Q355 -9 262 -9ZM128 120T159
83T257 46T355 77T385 168Q385 240 339 266Q306 285 264 293T208 306Q205 305 200 304T180 293T156 270T137 229T128 161ZM192 604T171 574T149 482Q149 363 304 349Q306 349 315 354T330 364T343 379T354 402Q366 431 366 468T363 524T349 562Q328 604 260 604Z"
/>
<glyph unicode="9" glyph-name="nine" horiz-adv-x="518" d="M381 303Q280 273 211 273T101 316T59 466Q59 535 110 597T254 659Q354 659 400 608Q440 565 448 450Q452 403 452 329Q452 160 398 76T247 -8Q199 -8 162 5T66 52L88 106Q182 51 251 51T350 106T381
303ZM123 384T148 359T226 333T381 359Q383 387 383 410T381 465T369 530Q348 599 238 599Q123 599 123 466Q123 384 148 359Z" />
<glyph unicode=":" glyph-name="colon" horiz-adv-x="229" d="M157 93V2H72L73 93H157ZM157 408V317H72L73 408H157Z" />
<glyph unicode=";" glyph-name="semicolon" horiz-adv-x="249" d="M169 93L170 2L117 -125H68L93 2L94 93H169ZM165 408V317H80L81 408H165Z" />
<glyph unicode="&lt;" glyph-name="less" horiz-adv-x="449" d="M379 144V81L50 250V310L379 478V415L135 292Q122 286 122 281T129 272T379 144Z" />
<glyph unicode="=" glyph-name="equal" d="M76 184V243H407V184H76ZM76 384V443H407V384H76Z" />
<glyph unicode="&gt;" glyph-name="greater" horiz-adv-x="449" d="M327 283Q327 284 326 286Q323 288 320 289T314 292L70 415V478L399 310V250L70 81V144Q263 243 314 269Q326 277 327 280V283Z" />
<glyph unicode="?" glyph-name="question" horiz-adv-x="406" d="M37 655Q105 662 150 662T218 658T265 645T305 621T334 584Q360 544 360 462Q360 390 328 354Q310 334 299 325T270 306T238 286T218 274T204 263T191 251T182 236Q176 224 176 193L174 129H118Q116
161 116 205T134 277T179 320T231 352Q294 391 294 460Q294 522 273 551Q262 566 251 577T220 594Q178 607 136 607T51 601Q42 645 37 655ZM181 -19H109V55H181V-19Z" />
<glyph unicode="@" glyph-name="at" horiz-adv-x="774" d="M489 250L478 251Q425 254 378 254T312 240T293 186T306 133T352 119T430 133T489 166V250ZM489 298L490 353Q490 405 467 425T388 446T257 420T151 345T120 207T129 77T174 4T254 -41T365 -55T472 -52T549
-36T607 -4T644 50Q671 112 671 249L727 246Q727 78 675 -4Q630 -76 510 -97Q459 -106 383 -108Q58 -108 58 156Q58 311 103 373T244 467T412 500T525 455Q547 431 548 378Q549 362 549 321V298Q549 203 550 178Q553 159 560 122T570 65H529L522 72L505 123Q418
66 348 64Q294 64 264 93T234 176Q234 250 275 276T389 303Q417 303 471 299L489 298Z" />
<glyph unicode="A" glyph-name="A" horiz-adv-x="596" d="M253 648H343L562 0H491L424 201H172L105 0H34L253 648ZM190 257H407L301 593H298L190 257Z" />
<glyph unicode="B" glyph-name="B" horiz-adv-x="549" d="M260 -1L157 0H91V648H248Q290 648 317 646T374 633T421 603Q460 559 460 464T407 333Q427 325 438 318T464 294Q491 262 491 168T437 36T260 -1ZM157 60L295 59Q366 59 394 79T422 175Q422 302 322 302H157V60ZM237
587H157V358H343Q392 358 392 466Q392 527 381 545T361 570T330 581Q300 587 237 587Z" />
<glyph unicode="C" glyph-name="C" horiz-adv-x="554" d="M245 647T281 653T374 660T514 633L498 580Q408 598 365 598T290 594T227 573T175 528Q132 462 132 326Q132 159 192 102Q221 75 252 65T320 54T376 56Q434 60 491 94L514 40Q442 -9 326 -9Q281 -9 248
-4T178 21T118 76T78 174T62 322T82 471T131 569T203 625Z" />
<glyph unicode="D" glyph-name="D" horiz-adv-x="622" d="M91 648H262Q323 648 364 642T445 617T508 563Q559 488 559 329Q559 231 533 155Q515 103 464 57Q436 31 372 12Q336 2 296 1T224 0H91V648ZM157 58H224Q229 58 250 58T287 58T331 61T370 68T403 82T432
104T453 138T472 185Q486 258 487 336T478 464T438 542T370 578T263 587H157V58Z" />
<glyph unicode="E" glyph-name="E" horiz-adv-x="507" d="M459 0H91V648H448L441 592H158V363H408V307H157V56H459V0Z" />
<glyph unicode="F" glyph-name="F" horiz-adv-x="452" d="M158 592V360H382V304H157V0H91V648H416L409 592H158Z" />
<glyph unicode="G" glyph-name="G" horiz-adv-x="603" d="M361 332H534L533 51Q449 -9 345 -9Q291 -9 252 -3T175 24T114 81Q62 160 62 324Q62 660 359 660Q398 660 451 651T537 628L519 576Q448 598 359 598Q230 598 181 537T132 325Q132 152 196 98Q228 71 261
62T344 53Q425 53 471 84V284H361V332Z" />
<glyph unicode="H" glyph-name="H" horiz-adv-x="624" d="M467 648H533V0H467V308H157V0H91V648H157V364H467V648Z" />
<glyph unicode="I" glyph-name="I" horiz-adv-x="248" d="M91 648H157V0H91V648Z" />
<glyph unicode="J" glyph-name="J" horiz-adv-x="263" d="M107 648H173V78Q172 -24 121 -79T-16 -136L-29 -98Q104 -71 107 78V648Z" />
<glyph unicode="K" glyph-name="K" horiz-adv-x="566" d="M157 0H91V648H158V316L229 399Q300 482 370 565L441 648H514L254 341L553 0H470L214 294L157 227V0Z" />
<glyph unicode="L" glyph-name="L" horiz-adv-x="467" d="M92 1H91V648H157L156 56H444V0H92V1Z" />
<glyph unicode="M" glyph-name="M" horiz-adv-x="762" d="M181 648L381 245L580 648H660L680 0H613L607 488L606 560L413 180H348L155 560L148 0H81L103 648H181Z" />
<glyph unicode="N" glyph-name="N" horiz-adv-x="659" d="M502 648H568V0H495L153 547L157 453V0H91V648H163L505 103L502 199V648Z" />
<glyph unicode="O" glyph-name="O" horiz-adv-x="661" d="M331 661Q482 661 540 591T599 329Q599 232 576 163T512 58Q437 -9 331 -9Q186 -9 136 44Q85 99 70 196Q62 252 62 335T87 487T153 591Q233 661 331 661ZM312 599Q221 599 177 536T132 328Q132 192 166
126Q194 71 268 58Q298 52 345 52Q439 52 484 117T529 329Q529 443 507 502Q494 537 470 557Q420 599 312 599Z" />
<glyph unicode="P" glyph-name="P" horiz-adv-x="553" d="M264 253L204 254H158V0H91V648H281Q334 648 370 642T441 616Q509 576 509 453Q509 350 460 302Q439 282 404 271T339 256T264 253ZM224 311L300 310Q381 310 410 335T439 449T403 562T269 587H158V311H224Z" />
<glyph unicode="Q" glyph-name="Q" horiz-adv-x="660" d="M328 661Q479 661 538 591T598 329Q598 125 494 44Q437 -1 358 -7V-34Q358 -37 358 -40Q358 -94 374 -109T466 -144Q484 -149 495 -152Q495 -184 498 -197Q384 -181 338 -148T290 -33V-7Q245 -5 213 3T151
32T102 89Q62 169 62 328Q62 419 86 487T152 591Q230 661 328 661ZM309 599Q219 599 176 536T133 328Q133 192 165 126Q193 70 264 58Q295 52 342 52Q436 52 481 117T527 329Q527 403 519 449T489 531T423 583T309 599Z" />
<glyph unicode="R" glyph-name="R" horiz-adv-x="580" d="M264 253L204 254H158V0H91V648H281Q334 648 370 642T441 616Q509 576 509 453Q509 361 473 317T369 260L537 18L485 -17L295 253H264ZM224 311L300 310Q381 310 410 335T439 449T403 562T269 587H158V311H224Z" />
<glyph unicode="S" glyph-name="S" horiz-adv-x="514" d="M65 75Q142 46 231 46T357 72T394 171Q394 209 370 234Q347 256 328 266L292 284Q275 292 251 303T208 322T159 347T115 375T86 404Q58 435 58 484Q58 567 115 613T262 660T429 635L416 585Q354 605 274
605T160 580T127 492Q127 446 174 416Q212 392 291 358T398 304Q469 256 470 174Q470 -9 233 -9Q134 -9 48 20L65 75Z" />
<glyph unicode="T" glyph-name="T" horiz-adv-x="477" d="M24 592V648H453V592H271V0H205V592H24Z" />
<glyph unicode="U" glyph-name="U" horiz-adv-x="612" d="M310 -10Q308 -10 296 -10T272 -10T235 -6T193 5T155 29T120 67Q87 120 87 204V648H154V204Q157 47 310 47Q375 47 418 85T461 200V648H526L525 202Q525 -10 310 -10Z" />
<glyph unicode="V" glyph-name="V" horiz-adv-x="578" d="M248 0L35 648H110L289 81L471 648H543L331 0H248Z" />
<glyph unicode="W" glyph-name="W" horiz-adv-x="799" d="M364 493H434L619 71L624 160L666 648H735L665 0H584L400 417L220 0H134L65 648H134L178 161L183 70L364 493Z" />
<glyph unicode="X" glyph-name="X" horiz-adv-x="572" d="M41 648H116L286 381L455 648H531L331 338L550 0H478L286 296L94 0H22L241 338L41 648Z" />
<glyph unicode="Y" glyph-name="Y" horiz-adv-x="538" d="M236 0V265L30 648H104L269 324L437 648H508L303 265L302 0H236Z" />
<glyph unicode="Z" glyph-name="Z" horiz-adv-x="522" d="M47 592V648H476V592L118 56L476 58L457 0H47V56L403 592H47Z" />
<glyph unicode="[" glyph-name="bracketleft" horiz-adv-x="251" d="M85 541L86 594Q86 604 89 612T92 627T99 641T106 652T117 664T130 676T148 690T168 707L194 684Q167 650 153 619L150 543Q152 407 152 271T150 -1L153 -77Q167 -106 194 -143L168 -166Q161
-160 148 -149T131 -135T118 -123T107 -111T99 -100T93 -86T89 -71T86 -52L85 0L84 409Q84 523 85 541Z" />
<glyph unicode="\" glyph-name="backslash" horiz-adv-x="378" d="M77 751L354 -31L299 -50L23 732L77 751Z" />
<glyph unicode="]" glyph-name="bracketright" horiz-adv-x="251" d="M167 0L166 -52Q166 -62 163 -71T160 -86T153 -99T146 -110T135 -122T122 -134T105 -149T84 -166L58 -143Q85 -106 99 -77L102 -1Q100 135 100 271T102 543L99 619Q85 650 58 684L84 707Q90
702 104 691T121 676T134 665T145 653T153 642T159 628T163 613T166 594L167 541V0Z" />
<glyph unicode="^" glyph-name="asciicircum" horiz-adv-x="493" d="M243 572Q242 572 240 570Q238 568 237 565T234 559L111 305H48L216 644H276L445 305H382Q270 526 257 559Q249 571 246 572H243Z" />
<glyph unicode="_" glyph-name="underscore" horiz-adv-x="567" d="M69 0V59H498V0H69Z" />
<glyph unicode="`" glyph-name="grave" horiz-adv-x="352" d="M88 671L136 716Q174 674 199 655Q234 628 260 611L280 597Q275 590 266 582T252 568L184 596Q130 633 88 671Z" />
<glyph unicode="a" glyph-name="a" horiz-adv-x="486" d="M408 299L407 180Q407 152 408 128L430 6L431 1H387L383 4L359 62Q266 -2 176 -5Q113 -5 80 28T46 123Q46 207 93 237T222 267Q232 267 343 261V326Q343 392 319 417T250 443T80 416L71 464Q195 501 249
501Q331 501 379 450Q408 419 408 299ZM343 211L238 215Q158 215 134 199T110 136T126 71T181 53T274 69T343 106V211Z" />
<glyph unicode="b" glyph-name="b" horiz-adv-x="509" d="M75 736H137V447Q197 500 260 500T362 482T420 426Q454 361 454 252Q454 183 437 131T397 53T343 11Q300 -12 258 -12Q232 -12 215 -9T189 -4T168 2T149 9T129 17T111 25Q81 40 75 42V736ZM137 67Q193
47 243 47T319 59T358 88T378 134Q386 174 386 238Q386 357 366 399T266 441T137 385V67Z" />
<glyph unicode="c" glyph-name="c" horiz-adv-x="451" d="M175 479T211 490T292 501T393 482L385 438Q330 449 297 449Q211 449 166 405T121 245Q121 43 285 43Q336 43 394 79L421 37Q356 -10 269 -10Q224 -10 191 -1T124 33Q54 85 54 245Q54 320 77 373T137 453Z" />
<glyph unicode="d" glyph-name="d" horiz-adv-x="516" d="M363 33T324 12T235 -10T147 8T89 64Q55 129 55 238Q55 307 72 358T112 436T166 479Q209 502 251 502T372 466V736H434V127L458 0H417L413 3L389 61Q363 33 324 12ZM123 349T123 241T143 91T242 49T372
105V423Q322 443 248 443T149 396Z" />
<glyph unicode="e" glyph-name="e" horiz-adv-x="492" d="M440 321Q440 285 434 246H120Q124 136 157 95T274 53Q337 53 421 80L427 30Q404 21 392 18T365 10T344 3T324 -2T302 -6Q275 -9 256 -9Q162 -9 108 57T54 241Q54 306 70 355T108 431T161 474Q207 499
261 501Q440 500 440 321ZM377 337Q377 397 347 421T258 445T161 414T122 297H374Q377 320 377 337Z" />
<glyph unicode="f" glyph-name="f" horiz-adv-x="297" d="M153 500Q153 492 195 492T256 492T279 493L270 444H161Q153 444 153 440V-74L118 -198L115 -201H69L91 -74V438Q91 443 78 443H44L45 472Q86 491 91 493V494L90 572Q90 624 111 659T162 710Q219 736 269
736Q272 736 275 736L296 735L285 686Q284 684 276 685T260 687T235 682T199 667T167 633T153 572V500Z" />
<glyph unicode="g" glyph-name="g" horiz-adv-x="501" d="M407 342Q407 264 362 219T238 173Q214 173 175 180L119 102L370 103Q420 103 447 66T474 -31Q474 -114 409 -158T243 -202T96 -168T48 -58L143 40Q88 40 71 55T53 102Q94 148 131 197Q94 225 82 258T70
344Q70 421 118 465T244 509Q296 509 338 487L449 486L436 434L379 433Q407 387 407 342ZM284 -151T303 -150T343 -142T378 -124Q409 -99 409 -43T396 27T331 41H196L114 -68Q114 -123 157 -139Q190 -151 237 -151ZM238 223Q348 223 348 339Q348 405 322 431T240
458T158 431T130 338Q130 223 238 223Z" />
<glyph unicode="h" glyph-name="h" horiz-adv-x="520" d="M142 0H78V736H142V445Q187 475 221 489T300 503Q445 503 445 352V0H380V352Q379 443 276 443Q232 443 190 424T142 387V0Z" />
<glyph unicode="i" glyph-name="i" horiz-adv-x="218" d="M78 492H140V0H78V492ZM74 657H144V585H74V657Z" />
<glyph unicode="j" glyph-name="j" horiz-adv-x="217" d="M74 657H144V585H74V657ZM78 492H139V-39Q139 -123 87 -158T-64 -202L-56 -156Q36 -136 60 -106Q72 -90 75 -77T78 -39V492Z" />
<glyph unicode="k" glyph-name="k" horiz-adv-x="485" d="M140 0H78V736H140V292L314 492H389L218 296L477 0H397L178 251L140 207V0Z" />
<glyph unicode="l" glyph-name="l" horiz-adv-x="218" d="M74 736H136V119L161 -9H115L111 -5L74 119V736Z" />
<glyph unicode="m" glyph-name="m" horiz-adv-x="789" d="M429 0H364V352Q362 404 345 423T280 443T193 424T145 387V0H81V365L64 487H111L114 484L129 434Q167 459 185 470T237 492T304 503Q388 503 416 436Q452 460 472 471Q528 503 588 503T680 469T714 352V0H649V352Q647
404 630 423T565 443T477 424T429 387V0Z" />
<glyph unicode="n" glyph-name="n" horiz-adv-x="524" d="M449 0H384V352Q383 401 357 422T282 443T193 424T145 388V0H81V365L64 487H107L110 485L129 434Q164 458 186 470Q241 503 306 503Q446 503 449 352V0Z" />
<glyph unicode="o" glyph-name="o" horiz-adv-x="526" d="M334 434T313 439T253 444T187 432T145 390T127 330T123 246Q123 133 148 90T261 47Q308 47 337 59T380 99T398 159T402 234T402 296T398 339T390 377T374 405T349 427ZM342 500T385 480T449 404T470 262T452
123T402 43Q342 -11 262 -11Q145 -11 100 44T55 245Q55 315 74 367T125 446Q187 500 264 500Z" />
<glyph unicode="p" glyph-name="p" horiz-adv-x="513" d="M270 501Q386 501 425 428Q444 392 451 352T458 248T441 133T401 55T348 13Q305 -10 266 -10T143 25V-201H81V365L64 486H105L108 483L126 432Q191 501 270 501ZM143 68Q197 49 248 49T325 61T363 89T382
136T389 185T390 246T389 316T382 371T364 412Q334 442 275 442Q191 442 143 387V68Z" />
<glyph unicode="q" glyph-name="q" horiz-adv-x="508" d="M432 -201H370V42Q311 -10 247 -10T145 8T88 64Q55 127 55 238Q55 307 72 358T112 436T165 478Q209 501 249 501Q330 501 432 448V-201ZM370 423Q311 442 266 442T197 435T159 411T137 380T125 339Q120
296 120 250T121 175T129 120T149 78Q177 49 238 49Q321 49 370 105V423Z" />
<glyph unicode="r" glyph-name="r" horiz-adv-x="341" d="M283 500Q303 500 327 494L303 435Q287 438 271 438Q208 438 143 368V0H81V364L64 486H102L105 484L124 413Q168 456 204 478T283 500Z" />
<glyph unicode="s" glyph-name="s" horiz-adv-x="418" d="M59 68Q121 44 175 44T267 66T306 126T280 185T217 222T144 251T81 295T55 366Q55 432 101 467T216 503T350 480L337 434Q287 451 224 451Q120 451 120 370Q120 318 210 284Q248 270 285 254T349 206T376
131Q376 64 318 28T184 -8T44 19L59 68Z" />
<glyph unicode="t" glyph-name="t" horiz-adv-x="275" d="M88 440Q88 445 83 445H43V474L89 493L100 581H151V501Q154 494 192 494H251L243 447L159 446Q150 446 150 442V126L176 -4H132L128 -1L88 126V440Z" />
<glyph unicode="u" glyph-name="u" horiz-adv-x="524" d="M75 492H140V141Q141 91 167 71T244 51T333 70T379 106V492H443V129L461 0H419L416 3L395 59Q356 33 339 23T290 2T221 -9Q78 -9 75 142V492Z" />
<glyph unicode="v" glyph-name="v" horiz-adv-x="497" d="M27 492H96L230 114L247 61H250L265 114L400 492H469L287 5L283 0H214L210 5L27 492Z" />
<glyph unicode="w" glyph-name="w" horiz-adv-x="753" d="M341 492H412L523 104L530 65H532L539 104L652 492H722L566 0H497L387 374L378 422H375L366 374L255 0H186L32 492H102L213 104L219 65H222L228 104L341 492Z" />
<glyph unicode="x" glyph-name="x" horiz-adv-x="461" d="M38 492H112L230 304L348 492H422L264 257L437 0H365L230 211L95 0H24L196 257L38 492Z" />
<glyph unicode="y" glyph-name="y" horiz-adv-x="497" d="M19 -144Q55 -154 80 -154Q159 -152 186 -81L216 -1L25 492H97L249 70L398 492H468L248 -101Q207 -202 98 -202Q52 -202 -4 -184L19 -144Z" />
<glyph unicode="z" glyph-name="z" horiz-adv-x="461" d="M407 492V438L125 71L110 56H424L405 0H37V55L322 422L337 437H58V492H407Z" />
<glyph unicode="{" glyph-name="braceleft" horiz-adv-x="266" d="M170 563L171 371Q171 348 162 335T148 315T134 302T121 292Q106 280 103 280Q100 278 100 271T103 262Q142 238 152 223Q171 196 171 171Q171 43 170 -21L173 -97Q187 -126 214 -163L188 -186Q181
-180 168 -169T151 -155T138 -143T127 -131T119 -120T113 -106T109 -91T106 -72L105 -20V184Q105 188 83 213T44 254Q42 261 42 273T43 288Q105 350 105 358V561L106 614Q106 624 109 632T112 647T119 661T126 672T137 684T150 696T168 710T188 727L214 704Q187
670 173 639L170 563Z" />
<glyph unicode="|" glyph-name="bar" horiz-adv-x="246" d="M91 682H155L154 -44H91V682Z" />
<glyph unicode="}" glyph-name="braceright" horiz-adv-x="266" d="M161 -20L160 -72Q160 -82 157 -91T154 -106T147 -119T140 -130T129 -142T116 -154T99 -169T78 -186L52 -163Q79 -126 93 -97L96 -21Q95 43 95 171Q95 220 155 257L163 262Q166 264 166 271T163
280Q160 280 150 288T132 302T119 315T107 330Q95 348 95 371L96 563L93 639Q79 670 52 704L78 727Q84 722 98 711T115 696T128 685T139 673T147 662T153 648T157 633T160 614L161 561V358Q161 350 223 288Q224 285 224 280Q224 261 222 254Q206 239 184 214T161
184V-20Z" />
<glyph unicode="~" glyph-name="asciitilde" horiz-adv-x="500" d="M382 246Q363 231 354 229T335 227T310 230L165 253L90 221L72 249L114 290Q135 307 143 310T161 313T182 311L337 285L411 320L429 285L382 246Z" />
<glyph unicode="&#xa0;" glyph-name="nbspace" horiz-adv-x="228" />
<glyph unicode="&#xa1;" glyph-name="exclamdown" horiz-adv-x="237" d="M96 355H141L151 121L156 -170H81L86 121L96 355ZM82 500H154V426H82V500Z" />
<glyph unicode="&#xa2;" glyph-name="cent" horiz-adv-x="466" d="M238 -15V80Q162 86 112 134Q56 188 56 334Q56 461 116 521Q169 574 238 586V684H292V590Q340 589 393 571L385 527Q330 538 297 538Q211 538 166 494T121 334Q121 132 285 132Q336 132 394 168L421
126Q363 84 292 79V-15H238Z" />
<glyph unicode="&#xa3;" glyph-name="sterling" horiz-adv-x="514" d="M52 274V324H128Q125 337 119 361T110 400Q101 440 101 459Q101 555 151 602T283 649T442 618L423 567Q363 594 291 594T194 567T169 465Q169 430 174 407L186 359Q192 334 194 324H320V274H204Q207
251 207 229Q207 138 154 56H465V0H77V55Q142 112 142 217Q142 244 138 274H52Z" />
<glyph unicode="&#xa4;" glyph-name="currency" horiz-adv-x="684" d="M141 124Q76 192 76 317T138 504L64 593L112 633L189 541Q249 570 339 570T490 539L570 633L618 593L542 502Q610 434 610 307T547 117L618 33L569 -8L494 80Q435 52 345 52T191 85L113 -8L64
33L141 124ZM341 108Q470 108 512 172Q532 204 539 236T547 309T538 383T508 447Q463 514 348 514T185 464T138 311T191 158T341 108Z" />
<glyph unicode="&#xa5;" glyph-name="yen" horiz-adv-x="546" d="M93 265V315H213L34 648H108L273 324L441 648H512L334 315H454V265H307L306 183H454V133H306V0H240V133H93V183H240V265H93Z" />
<glyph unicode="&#xa6;" glyph-name="brokenbar" horiz-adv-x="245" d="M92 -44V242H153V-44H92ZM92 394V684H153V394H92Z" />
<glyph unicode="&#xa7;" glyph-name="section" horiz-adv-x="495" d="M52 307Q52 394 139 463Q105 484 90 510T74 577Q74 647 124 691T257 735Q303 735 362 719L381 714L369 668Q322 684 276 684Q198 684 172 658T146 585Q146 563 152 548T178 519Q201 503 231
490T262 476T267 474T272 472Q365 433 395 409Q449 364 448 290Q445 205 361 138Q396 118 412 92T428 25Q428 -45 378 -89T245 -133Q214 -133 171 -123T100 -103L73 -93L87 -47Q180 -82 223 -82T293 -74T332 -50Q351 -26 351 7T345 56T316 86Q286 106 211 137T105
193Q52 236 52 307ZM128 315Q128 266 160 240Q186 221 214 208T315 162Q372 206 372 287Q372 336 340 362Q314 381 265 405Q202 432 184 440Q128 397 128 315Z" />
<glyph unicode="&#xa8;" glyph-name="dieresis" horiz-adv-x="550" d="M166 658H238V584H166V658ZM312 658H384V584H312V658Z" />
<glyph unicode="&#xa9;" glyph-name="copyright" horiz-adv-x="756" d="M389 494Q422 494 480 478L468 438L449 440Q411 448 391 448Q328 448 299 422T269 309T296 193T371 162T462 188L480 148Q434 116 368 116Q336 116 313 122T266 146Q218 183 218 305Q218
421 278 462Q326 494 389 494ZM509 622T602 529T696 303T606 79T381 -14T154 79T60 305T150 529T375 622ZM500 35T569 109T639 299T563 492T371 570T186 497T116 307T192 113T384 35Z" />
<glyph unicode="&#xaa;" glyph-name="ordfeminine" horiz-adv-x="351" d="M163 588L201 587H227V615Q227 647 215 659T182 671T114 663L74 657L68 699L94 705Q148 720 179 720Q230 720 259 688V689Q279 672 279 600V505L292 438V425L250 426L240 453Q185 423 141
422T76 442T54 507T82 570T163 588ZM216 544T174 544T120 537T107 507T114 478T142 471T190 477T227 494V543Q216 544 174 544Z" />
<glyph unicode="&#xab;" glyph-name="guillemotleft" horiz-adv-x="490" d="M115 293T115 280T138 243L249 126L208 88L46 261V299L207 471L249 435L138 316Q115 293 115 280ZM301 293T301 280T324 243L435 126L394 88L232 261V299L393 471L435 435L324 316Q301
293 301 280Z" />
<glyph unicode="&#xac;" glyph-name="logicalnot" horiz-adv-x="525" d="M66 384V443H447V236H388V384H66Z" />
<glyph unicode="&#xae;" glyph-name="registered" horiz-adv-x="756" d="M364 264L346 265H312V126H264V492H374Q437 492 470 470T504 379Q504 287 431 270L521 140L484 114L378 264H364ZM343 308L364 307H384Q425 307 439 320T454 377T436 434T367 447H312V308H343ZM509
622T602 529T696 303T606 79T381 -14T154 79T60 305T150 529T375 622ZM500 35T569 109T639 299T563 492T371 570T186 497T116 307T192 113T384 35Z" />
<glyph unicode="&#xaf;" glyph-name="overscore" horiz-adv-x="541" d="M70 657V716H471V657H70Z" />
<glyph unicode="&#xb0;" glyph-name="degree" horiz-adv-x="340" d="M228 686T258 653T288 571T258 486T169 451T82 485T52 568T82 652T170 686ZM238 540T238 570T222 621T170 642T119 621T102 569T118 517T169 495T221 517Z" />
<glyph unicode="&#xb1;" glyph-name="plusminus" horiz-adv-x="521" d="M69 0V59H451V0H69ZM230 551H289V385H451V326H289V166H230V326H70V385H230V551Z" />
<glyph unicode="&#xb2;" glyph-name="twosuperior" horiz-adv-x="305" d="M243 452V406H61V426Q61 494 131 552H130Q161 577 170 590T179 622T171 649T138 657T77 640L62 685Q117 705 152 705T210 684T233 630T223 579T186 537L164 517Q158 511 153 507T146 501Q141
496 138 493T131 486T127 480T123 475T120 468Q116 458 114 452H243Z" />
<glyph unicode="&#xb3;" glyph-name="threesuperior" horiz-adv-x="293" d="M79 645L65 686Q110 705 139 705Q223 705 225 623Q225 585 208 562Q238 528 238 487T211 419T141 393T52 420L75 464Q112 443 141 443T180 455Q186 466 186 488Q186 528 161 535Q152
536 129 536H105V578H132Q162 582 168 592Q174 610 174 620Q174 660 134 660Q113 660 79 645Z" />
<glyph unicode="&#xb4;" glyph-name="acute" horiz-adv-x="351" d="M220 719L268 674Q226 636 172 599L104 571Q99 577 90 585T76 600L96 614Q157 655 179 677T220 719Z" />
<glyph unicode="&#xb5;" glyph-name="mu" horiz-adv-x="552" d="M89 -195V492H154V141Q155 91 181 71T258 51T347 70T393 106V492H457V129L475 0H433L430 3L409 59Q370 33 353 23T304 2T240 -9Q183 -9 162 11L154 18V-195H89Z" />
<glyph unicode="&#xb6;" glyph-name="paragraph" horiz-adv-x="512" d="M416 648V-82H350V592H266V-82H198V331Q128 331 84 374T39 490T81 605T198 648H416Z" />
<glyph unicode="&#xb7;" glyph-name="middot" horiz-adv-x="241" d="M66 296T82 310T124 324T162 311T175 266Q175 208 121 208T66 266Q66 296 82 310Z" />
<glyph unicode="&#xb8;" glyph-name="cedilla" horiz-adv-x="339" d="M169 -5H229V-64L187 -174L184 -178H140L169 -64V-5Z" />
<glyph unicode="&#xb9;" glyph-name="onesuperior" horiz-adv-x="236" d="M109 707H164V408H109V645L61 616L36 659L109 706V707Z" />
<glyph unicode="&#xba;" glyph-name="ordmasculine" horiz-adv-x="367" d="M183 668Q136 668 123 644T110 560T123 477T183 453T243 477T256 547T255 607T247 639T225 662T183 668ZM183 717Q256 717 284 685T312 566T274 442T183 404Q111 404 83 438T55 557T94
679T183 717Z" />
<glyph unicode="&#xbb;" glyph-name="guillemotright" horiz-adv-x="490" d="M375 266T375 279T352 316L241 435L283 471L444 299V261L282 88L241 126L352 243Q375 266 375 279ZM189 266T189 279T166 316L55 435L97 471L258 299V261L96 88L55 126L166 243Q189
266 189 279Z" />
<glyph unicode="&#xbc;" glyph-name="onequarter" horiz-adv-x="714" d="M147 6L474 741L527 718L201 -17L147 6ZM645 175H676V125H645V50H590V125H480V168Q480 197 494 218L584 356L626 329L545 200Q534 184 534 175H590V216H645V175ZM102 698H157V399H102V636L54
607L29 650L102 697V698Z" />
<glyph unicode="&#xbd;" glyph-name="onehalf" horiz-adv-x="725" d="M147 6L474 741L527 718L201 -17L147 6ZM677 51H495V71Q495 139 565 197H564Q595 222 604 235T613 267T605 294T572 302T511 285L496 330Q551 350 586 350T644 329T667 275T657 224T620 182L565
132Q555 122 548 97H677V51ZM102 698H157V399H102V636L54 607L29 650L102 697V698Z" />
<glyph unicode="&#xbe;" glyph-name="threequarters" horiz-adv-x="772" d="M205 6L532 741L585 718L259 -17L205 6ZM155 592Q161 610 161 620Q161 660 121 660Q100 660 66 645L52 686Q97 705 126 705Q210 705 212 623Q212 585 195 562Q225 528 225 487T198 419T128
393T39 420L62 464Q99 443 128 443T167 455Q173 466 173 488Q173 528 148 535Q139 536 116 536H92V578H119Q149 582 155 592ZM703 175H734V125H703V50H648V125H538V168Q538 197 552 218L642 356L684 329L603 200Q592 184 592 175H648V216H703V175Z" />
<glyph unicode="&#xbf;" glyph-name="questiondown" horiz-adv-x="401" d="M352 -116L366 -170Q298 -177 240 -177Q207 -177 185 -173T138 -160T98 -136T68 -100Q43 -59 43 23Q43 95 76 132Q93 151 104 160T132 179T170 202T206 228Q227 247 227 292L229 356H285Q287
324 287 275Q287 204 224 165Q198 149 172 133T128 91T109 14T130 -66Q141 -81 152 -92T182 -109T214 -118T269 -122T352 -116ZM222 504H294V430H222V504Z" />
<glyph unicode="&#xc0;" glyph-name="Agrave" horiz-adv-x="596" d="M253 648H343L562 0H491L424 201H172L105 0H34L253 648ZM190 257H407L301 593H298L190 257ZM202 827L250 872Q288 830 313 811Q348 784 374 767L394 753Q389 746 380 738T366 724L298 752Q244
789 202 827Z" />
<glyph unicode="&#xc1;" glyph-name="Aacute" horiz-adv-x="596" d="M253 648H343L562 0H491L424 201H172L105 0H34L253 648ZM190 257H407L301 593H298L190 257ZM346 875L394 830Q352 792 298 755L230 727Q225 733 216 741T202 756L222 770Q283 811 305 833T346 875Z" />
<glyph unicode="&#xc2;" glyph-name="Acircumflex" horiz-adv-x="596" d="M253 648H343L562 0H491L424 201H172L105 0H34L253 648ZM190 257H407L301 593H298L190 257ZM298 830L192 743L164 773L268 879H328L432 773L403 743L298 830Z" />
<glyph unicode="&#xc3;" glyph-name="Atilde" horiz-adv-x="596" d="M253 648H343L562 0H491L424 201H172L105 0H34L253 648ZM190 257H407L301 593H298L190 257ZM399 752Q380 737 371 736T354 734T327 739L242 759L167 727L149 755L191 790Q212 808 219 809T234
811T259 807L354 785L428 820L446 791L399 752Z" />
<glyph unicode="&#xc4;" glyph-name="Adieresis" horiz-adv-x="596" d="M253 648H343L562 0H491L424 201H172L105 0H34L253 648ZM190 257H407L301 593H298L190 257ZM189 814H261V740H189V814ZM335 814H407V740H335V814Z" />
<glyph unicode="&#xc5;" glyph-name="Aring" horiz-adv-x="596" d="M253 648H343L562 0H491L424 201H172L105 0H34L253 648ZM190 257H407L301 593H298L190 257ZM395 866T395 826T370 757T297 728T226 756T201 824T226 893T298 921T370 894ZM326 762T341 781T356
825T342 868T299 887T255 869T240 825T254 781T297 762Z" />
<glyph unicode="&#xc6;" glyph-name="AE" horiz-adv-x="798" d="M382 0V201H183L80 0H9L338 648H426L427 0H382ZM382 257V595L210 257H382ZM750 0H382V648H739L732 592H449V363H699V307H448V56H750V0Z" />
<glyph unicode="&#xc7;" glyph-name="Ccedilla" horiz-adv-x="553" d="M317 660T281 654T203 626T132 569T82 471T62 323T78 174T117 76T178 22T248 -3T326 -9Q442 -9 514 40L491 94Q434 60 376 56Q358 54 321 54T252 64T192 102Q132 159 132 326Q132 462 175
528Q194 557 226 573T290 593T364 598T498 580L514 633Q431 660 374 660ZM282 -5H342V-64L300 -174L297 -178H253L282 -64V-5Z" />
<glyph unicode="&#xc8;" glyph-name="Egrave" horiz-adv-x="507" d="M459 0H91V648H448L441 592H158V363H408V307H157V56H459V0ZM152 827L200 872Q238 830 263 811Q298 784 324 767L344 753Q339 746 330 738T316 724L248 752Q194 789 152 827Z" />
<glyph unicode="&#xc9;" glyph-name="Eacute" horiz-adv-x="507" d="M459 0H91V648H448L441 592H158V363H408V307H157V56H459V0ZM296 875L344 830Q302 792 248 755L180 727Q175 733 166 741T152 756L172 770Q233 811 255 833T296 875Z" />
<glyph unicode="&#xca;" glyph-name="Ecircumflex" horiz-adv-x="507" d="M459 0H91V648H448L441 592H158V363H408V307H157V56H459V0ZM248 830L142 743L114 773L218 879H278L382 773L353 743L248 830Z" />
<glyph unicode="&#xcb;" glyph-name="Edieresis" horiz-adv-x="507" d="M459 0H91V648H448L441 592H158V363H408V307H157V56H459V0ZM159 814H231V740H159V814ZM305 814H377V740H305V814Z" />
<glyph unicode="&#xcc;" glyph-name="Igrave" horiz-adv-x="248" d="M91 648H157V0H91V648ZM23 827L71 872Q109 830 134 811Q169 784 194 767L215 753Q210 746 201 738T187 724L119 752Q65 789 23 827Z" />
<glyph unicode="&#xcd;" glyph-name="Iacute" horiz-adv-x="248" d="M91 648H157V0H91V648ZM184 875L232 830Q190 792 136 755L68 727Q63 733 54 741T40 756L60 770Q121 811 143 833T184 875Z" />
<glyph unicode="&#xce;" glyph-name="Icircumflex" horiz-adv-x="248" d="M91 648H157V0H91V648ZM124 830L18 743L-10 773L94 879H154L258 773L229 743L124 830Z" />
<glyph unicode="&#xcf;" glyph-name="Idieresis" horiz-adv-x="248" d="M91 648H157V0H91V648ZM15 814H87V740H15V814ZM161 814H233V740H161V814Z" />
<glyph unicode="&#xd0;" glyph-name="Eth" horiz-adv-x="644" d="M33 301V360H113V648H284Q345 648 386 642T467 617T530 563Q581 488 581 329Q581 231 555 155Q537 103 486 57Q458 31 394 12Q358 2 318 1T246 0H113V301H33ZM179 58H246Q251 58 272 58T309 58T353
61T392 68T425 82T454 104T475 138T494 185Q508 258 509 336T500 464T460 542T392 578T285 587H179V360H400V301H179V58Z" />
<glyph unicode="&#xd1;" glyph-name="Ntilde" horiz-adv-x="659" d="M502 648H568V0H495L153 547L157 453V0H91V648H163L505 103L502 199V648ZM447 752Q428 737 419 736T402 734T375 739L290 759L215 727L197 755L239 790Q260 808 267 809T282 811T307 807L402
785L476 820L494 791L447 752Z" />
<glyph unicode="&#xd2;" glyph-name="Ograve" horiz-adv-x="661" d="M331 661Q482 661 540 591T599 329Q599 232 576 163T512 58Q437 -9 331 -9Q186 -9 136 44Q85 99 70 196Q62 252 62 335T87 487T153 591Q233 661 331 661ZM312 599Q221 599 177 536T132 328Q132
192 166 126Q194 71 268 58Q298 52 345 52Q439 52 484 117T529 329Q529 443 507 502Q494 537 470 557Q420 599 312 599ZM235 827L283 872Q321 830 346 811Q381 784 406 767L427 753Q422 746 413 738T399 724L331 752Q277 789 235 827Z" />
<glyph unicode="&#xd3;" glyph-name="Oacute" horiz-adv-x="661" d="M331 661Q482 661 540 591T599 329Q599 232 576 163T512 58Q437 -9 331 -9Q186 -9 136 44Q85 99 70 196Q62 252 62 335T87 487T153 591Q233 661 331 661ZM312 599Q221 599 177 536T132 328Q132
192 166 126Q194 71 268 58Q298 52 345 52Q439 52 484 117T529 329Q529 443 507 502Q494 537 470 557Q420 599 312 599ZM391 875L439 830Q397 792 343 755L275 727Q270 733 261 741T247 756L268 770Q328 811 350 833T391 875Z" />
<glyph unicode="&#xd4;" glyph-name="Ocircumflex" horiz-adv-x="661" d="M331 661Q482 661 540 591T599 329Q599 232 576 163T512 58Q437 -9 331 -9Q186 -9 136 44Q85 99 70 196Q62 252 62 335T87 487T153 591Q233 661 331 661ZM312 599Q221 599 177 536T132
328Q132 192 166 126Q194 71 268 58Q298 52 345 52Q439 52 484 117T529 329Q529 443 507 502Q494 537 470 557Q420 599 312 599ZM331 830L225 743L197 773L301 879H361L465 773L436 743L331 830Z" />
<glyph unicode="&#xd5;" glyph-name="Otilde" horiz-adv-x="661" d="M331 661Q482 661 540 591T599 329Q599 232 576 163T512 58Q437 -9 331 -9Q186 -9 136 44Q85 99 70 196Q62 252 62 335T87 487T153 591Q233 661 331 661ZM312 599Q221 599 177 536T132 328Q132
192 166 126Q194 71 268 58Q298 52 345 52Q439 52 484 117T529 329Q529 443 507 502Q494 537 470 557Q420 599 312 599ZM432 752Q413 737 404 736T387 734T360 739L275 759L200 727L182 755L224 790Q245 808 252 809T267 811T292 807L387 785L461 820L479 791L432
752Z" />
<glyph unicode="&#xd6;" glyph-name="Odieresis" horiz-adv-x="661" d="M331 661Q482 661 540 591T599 329Q599 232 576 163T512 58Q437 -9 331 -9Q186 -9 136 44Q85 99 70 196Q62 252 62 335T87 487T153 591Q233 661 331 661ZM312 599Q221 599 177 536T132 328Q132
192 166 126Q194 71 268 58Q298 52 345 52Q439 52 484 117T529 329Q529 443 507 502Q494 537 470 557Q420 599 312 599ZM222 814H294V740H222V814ZM368 814H440V740H368V814Z" />
<glyph unicode="&#xd7;" glyph-name="multiply" horiz-adv-x="514" d="M453 150L412 109L257 264L101 107L60 148L214 303L61 457L102 498L255 345L409 499L452 460L298 305L453 150Z" />
<glyph unicode="&#xd8;" glyph-name="Oslash" horiz-adv-x="661" d="M116 -76L480 743L533 720L170 -99L116 -76ZM331 661Q482 661 540 591T599 329Q599 232 576 163T512 58Q437 -9 331 -9Q186 -9 136 44Q85 99 70 196Q62 252 62 335T87 487T153 591Q233 661 331
661ZM312 599Q221 599 177 536T132 328Q132 192 166 126Q194 71 268 58Q298 52 345 52Q439 52 484 117T529 329Q529 443 507 502Q494 537 470 557Q420 599 312 599Z" />
<glyph unicode="&#xd9;" glyph-name="Ugrave" horiz-adv-x="612" d="M310 -10Q308 -10 296 -10T272 -10T235 -6T193 5T155 29T120 67Q87 120 87 204V648H154V204Q157 47 310 47Q375 47 418 85T461 200V648H526L525 202Q525 -10 310 -10ZM210 827L258 872Q296 830
321 811Q356 784 382 767L402 753Q397 746 388 738T374 724L306 752Q252 789 210 827Z" />
<glyph unicode="&#xda;" glyph-name="Uacute" horiz-adv-x="612" d="M310 -10Q308 -10 296 -10T272 -10T235 -6T193 5T155 29T120 67Q87 120 87 204V648H154V204Q157 47 310 47Q375 47 418 85T461 200V648H526L525 202Q525 -10 310 -10ZM383 875L431 830Q389 792
335 755L267 727Q262 733 253 741T239 756L260 770Q320 811 342 833T383 875Z" />
<glyph unicode="&#xdb;" glyph-name="Ucircumflex" horiz-adv-x="612" d="M310 -10Q308 -10 296 -10T272 -10T235 -6T193 5T155 29T120 67Q87 120 87 204V648H154V204Q157 47 310 47Q375 47 418 85T461 200V648H526L525 202Q525 -10 310 -10ZM306 830L200 743L172
773L276 879H336L440 773L411 743L306 830Z" />
<glyph unicode="&#xdc;" glyph-name="Udieresis" horiz-adv-x="612" d="M310 -10Q308 -10 296 -10T272 -10T235 -6T193 5T155 29T120 67Q87 120 87 204V648H154V204Q157 47 310 47Q375 47 418 85T461 200V648H526L525 202Q525 -10 310 -10ZM197 814H269V740H197V814ZM343
814H415V740H343V814Z" />
<glyph unicode="&#xdd;" glyph-name="Yacute" horiz-adv-x="538" d="M236 0V265L30 648H104L269 324L437 648H508L303 265L302 0H236ZM345 875L393 830Q351 792 297 755L229 727Q224 733 215 741T201 756L222 770Q282 811 304 833T345 875Z" />
<glyph unicode="&#xde;" glyph-name="Thorn" horiz-adv-x="561" d="M264 52L204 53H158V-201H91V660H158V447H281Q334 447 370 441T441 414Q509 376 509 252Q509 149 460 102Q439 81 404 70T339 55T264 52ZM224 110L300 109Q381 109 410 134T439 248T403 361T269
386H158V110H224Z" />
<glyph unicode="&#xdf;" glyph-name="germandbls" horiz-adv-x="611" d="M91 494L90 572Q90 657 140 697T274 738T412 699T466 594Q466 515 414 478Q392 463 370 450Q318 418 318 370Q318 346 344 331T408 304T483 276T547 223T574 136T544 52Q488 -8 386 -8Q306
-8 242 19L257 68Q319 44 373 44T465 66T504 132T478 201T415 239T342 264T279 301T253 365T268 432T304 475T347 504Q398 537 398 583T363 658T273 688T186 660T153 572V-74L118 -198L115 -201H69L91 -74V438Q91 443 78 443H44L45 472Q86 491 91 493V494Z" />
<glyph unicode="&#xe0;" glyph-name="agrave" horiz-adv-x="486" d="M408 299L407 180Q407 152 408 128L430 6L431 1H387L383 4L359 62Q266 -2 176 -5Q113 -5 80 28T46 123Q46 207 93 237T222 267Q232 267 343 261V326Q343 392 319 417T250 443T80 416L71 464Q195
501 249 501Q331 501 379 450Q408 419 408 299ZM343 211L238 215Q158 215 134 199T110 136T126 71T181 53T274 69T343 106V211ZM143 671L191 716Q229 674 254 655Q289 628 314 611L335 597Q330 590 321 582T307 568L239 596Q185 633 143 671Z" />
<glyph unicode="&#xe1;" glyph-name="aacute" horiz-adv-x="486" d="M408 299L407 180Q407 152 408 128L430 6L431 1H387L383 4L359 62Q266 -2 176 -5Q113 -5 80 28T46 123Q46 207 93 237T222 267Q232 267 343 261V326Q343 392 319 417T250 443T80 416L71 464Q195
501 249 501Q331 501 379 450Q408 419 408 299ZM343 211L238 215Q158 215 134 199T110 136T126 71T181 53T274 69T343 106V211ZM287 719L335 674Q293 636 239 599L171 571Q166 577 157 585T143 600L164 614Q224 655 246 677T287 719Z" />
<glyph unicode="&#xe2;" glyph-name="acircumflex" horiz-adv-x="486" d="M408 299L407 180Q407 152 408 128L430 6L431 1H387L383 4L359 62Q266 -2 176 -5Q113 -5 80 28T46 123Q46 207 93 237T222 267Q232 267 343 261V326Q343 392 319 417T250 443T80 416L71
464Q195 501 249 501Q331 501 379 450Q408 419 408 299ZM343 211L238 215Q158 215 134 199T110 136T126 71T181 53T274 69T343 106V211ZM239 674L133 587L105 617L209 723H269L373 617L344 587L239 674Z" />
<glyph unicode="&#xe3;" glyph-name="atilde" horiz-adv-x="486" d="M408 299L407 180Q407 152 408 128L430 6L431 1H387L383 4L359 62Q266 -2 176 -5Q113 -5 80 28T46 123Q46 207 93 237T222 267Q232 267 343 261V326Q343 392 319 417T250 443T80 416L71 464Q195
501 249 501Q331 501 379 450Q408 419 408 299ZM343 211L238 215Q158 215 134 199T110 136T126 71T181 53T274 69T343 106V211ZM340 596Q321 581 312 580T295 578T268 583L183 603L108 571L90 599L132 634Q153 652 160 653T175 655T200 651L295 629L369 664L387
635L340 596Z" />
<glyph unicode="&#xe4;" glyph-name="adieresis" horiz-adv-x="486" d="M408 299L407 180Q407 152 408 128L430 6L431 1H387L383 4L359 62Q266 -2 176 -5Q113 -5 80 28T46 123Q46 207 93 237T222 267Q232 267 343 261V326Q343 392 319 417T250 443T80 416L71 464Q195
501 249 501Q331 501 379 450Q408 419 408 299ZM343 211L238 215Q158 215 134 199T110 136T126 71T181 53T274 69T343 106V211ZM132 658H204V584H132V658ZM278 658H350V584H278V658Z" />
<glyph unicode="&#xe5;" glyph-name="aring" horiz-adv-x="486" d="M408 299L407 180Q407 152 408 128L430 6L431 1H387L383 4L359 62Q266 -2 176 -5Q113 -5 80 28T46 123Q46 207 93 237T222 267Q232 267 343 261V326Q343 392 319 417T250 443T80 416L71 464Q195
501 249 501Q331 501 379 450Q408 419 408 299ZM343 211L238 215Q158 215 134 199T110 136T126 71T181 53T274 69T343 106V211ZM336 710T336 670T311 601T238 572T167 600T142 668T167 737T239 765T311 738ZM267 606T282 625T297 669T283 712T240 731T196 713T181
669T195 625T238 606Z" />
<glyph unicode="&#xe6;" glyph-name="ae" horiz-adv-x="781" d="M408 299L407 180Q407 152 408 128L409 100Q396 87 368 67T314 32Q246 -3 180 -4T80 28T46 123Q46 207 93 237T222 267Q232 267 343 261V326Q343 392 319 417T250 443T80 416L71 464Q195 501 249
501Q331 501 379 450Q408 419 408 299ZM343 211L238 215Q158 215 134 199T110 136T126 71T189 53T283 71T350 108L369 127L343 211ZM729 321Q729 285 723 246H409Q413 136 446 95T563 53Q626 53 710 80L716 30Q693 21 681 18T654 10T633 3T613 -2T591 -6Q564 -9
545 -9Q451 -9 397 57T343 241Q343 306 359 355T397 431T450 474Q496 499 550 501Q729 500 729 321ZM666 337Q666 397 636 421T547 445T450 414T411 297H663Q666 320 666 337Z" />
<glyph unicode="&#xe7;" glyph-name="ccedilla" horiz-adv-x="451" d="M247 501T211 490T138 453T77 374T54 245Q54 85 124 33Q157 8 190 -1T269 -10Q356 -10 421 37L394 79Q336 43 285 43Q121 43 121 245Q121 360 166 404T297 449Q330 449 385 438L393 482Q338
501 293 501ZM218 -5H278V-64L236 -174L233 -178H189L218 -64V-5Z" />
<glyph unicode="&#xe8;" glyph-name="egrave" horiz-adv-x="492" d="M440 321Q440 285 434 246H120Q124 136 157 95T274 53Q337 53 421 80L427 30Q404 21 392 18T365 10T344 3T324 -2T302 -6Q275 -9 256 -9Q162 -9 108 57T54 241Q54 306 70 355T108 431T161 474Q207
499 261 501Q440 500 440 321ZM377 337Q377 397 347 421T258 445T161 414T122 297H374Q377 320 377 337ZM158 671L206 716Q244 674 269 655Q304 628 330 611L350 597Q345 590 336 582T322 568L254 596Q200 633 158 671Z" />
<glyph unicode="&#xe9;" glyph-name="eacute" horiz-adv-x="492" d="M440 321Q440 285 434 246H120Q124 136 157 95T274 53Q337 53 421 80L427 30Q404 21 392 18T365 10T344 3T324 -2T302 -6Q275 -9 256 -9Q162 -9 108 57T54 241Q54 306 70 355T108 431T161 474Q207
499 261 501Q440 500 440 321ZM377 337Q377 397 347 421T258 445T161 414T122 297H374Q377 320 377 337ZM325 719L373 674Q331 636 277 599L209 571Q204 577 195 585T181 600L202 614Q262 655 284 677T325 719Z" />
<glyph unicode="&#xea;" glyph-name="ecircumflex" horiz-adv-x="492" d="M440 321Q440 285 434 246H120Q124 136 157 95T274 53Q337 53 421 80L427 30Q404 21 392 18T365 10T344 3T324 -2T302 -6Q275 -9 256 -9Q162 -9 108 57T54 241Q54 306 70 355T108 431T161
474Q207 499 261 501Q440 500 440 321ZM377 337Q377 397 347 421T258 445T161 414T122 297H374Q377 320 377 337ZM254 674L148 587L120 617L224 723H284L388 617L359 587L254 674Z" />
<glyph unicode="&#xeb;" glyph-name="edieresis" horiz-adv-x="492" d="M440 321Q440 285 434 246H120Q124 136 157 95T274 53Q337 53 421 80L427 30Q404 21 392 18T365 10T344 3T324 -2T302 -6Q275 -9 256 -9Q162 -9 108 57T54 241Q54 306 70 355T108 431T161
474Q207 499 261 501Q440 500 440 321ZM377 337Q377 397 347 421T258 445T161 414T122 297H374Q377 320 377 337ZM146 658H218V584H146V658ZM292 658H364V584H292V658Z" />
<glyph unicode="&#xec;" glyph-name="igrave" horiz-adv-x="218" d="M78 492H140V0H78V492ZM11 671L59 716Q97 674 122 655Q157 628 182 611L203 597Q198 590 189 582T175 568L107 596Q53 633 11 671Z" />
<glyph unicode="&#xed;" glyph-name="iacute" horiz-adv-x="221" d="M78 493H143V1H78V493ZM197 710L246 664Q204 627 149 590L81 562Q76 569 67 577T53 591Q54 592 68 601T86 613T103 625T125 641T146 659Q163 673 197 710Z" />
<glyph unicode="&#xee;" glyph-name="icircumflex" horiz-adv-x="221" d="M78 493H143V1H78V493ZM111 674L5 587L-23 617L81 723H141L245 617L216 587L111 674Z" />
<glyph unicode="&#xef;" glyph-name="idieresis" horiz-adv-x="221" d="M78 493H143V1H78V493ZM9 658H81V584H9V658ZM155 658H227V584H155V658Z" />
<glyph unicode="&#xf0;" glyph-name="eth" horiz-adv-x="518" d="M449 181T434 124T398 42Q351 -8 252 -8T104 55T56 222T99 383T207 441T375 412Q369 495 349 538T286 612L216 538L177 575L237 640L115 695L135 741L266 695Q269 693 282 688L339 748L378 711L331
661Q393 618 421 540T449 321ZM379 216L378 322V355Q276 381 225 381Q120 381 120 216Q120 132 147 92T235 52Q327 52 354 99Q365 117 370 130Q379 155 379 216Z" />
<glyph unicode="&#xf1;" glyph-name="ntilde" horiz-adv-x="525" d="M450 1H384V352Q383 401 357 422T283 443T194 424T146 388V1H80V365L63 487H108L111 485L130 434Q165 458 186 470Q242 503 307 503Q447 503 450 352V1ZM361 597Q342 582 333 581T316 579T289
584L204 604L129 572L111 600L153 635Q174 653 181 654T196 656T221 652L316 630L390 665L408 636L361 597Z" />
<glyph unicode="&#xf2;" glyph-name="ograve" horiz-adv-x="526" d="M334 434T313 439T253 444T187 432T145 390T127 330T123 246Q123 133 148 90T261 47Q308 47 337 59T380 99T398 159T402 234T402 296T398 339T390 377T374 405T349 427ZM342 500T385 480T449
404T470 262T452 123T402 43Q342 -11 262 -11Q145 -11 100 44T55 245Q55 315 74 367T125 446Q187 500 264 500ZM158 671L206 716Q244 674 269 655Q304 628 330 611L350 597Q345 590 336 582T322 568L254 596Q200 633 158 671Z" />
<glyph unicode="&#xf3;" glyph-name="oacute" horiz-adv-x="526" d="M334 434T313 439T253 444T187 432T145 390T127 330T123 246Q123 133 148 90T261 47Q308 47 337 59T380 99T398 159T402 234T402 296T398 339T390 377T374 405T349 427ZM342 500T385 480T449
404T470 262T452 123T402 43Q342 -11 262 -11Q145 -11 100 44T55 245Q55 315 74 367T125 446Q187 500 264 500ZM320 719L368 674Q326 636 272 599L204 571Q199 577 190 585T176 600L196 614Q257 655 279 677T320 719Z" />
<glyph unicode="&#xf4;" glyph-name="ocircumflex" horiz-adv-x="526" d="M334 434T313 439T253 444T187 432T145 390T127 330T123 246Q123 133 148 90T261 47Q308 47 337 59T380 99T398 159T402 234T402 296T398 339T390 377T374 405T349 427ZM342 500T385 480T449
404T470 262T452 123T402 43Q342 -11 262 -11Q145 -11 100 44T55 245Q55 315 74 367T125 446Q187 500 264 500ZM254 674L148 587L120 617L224 723H284L388 617L359 587L254 674Z" />
<glyph unicode="&#xf5;" glyph-name="otilde" horiz-adv-x="526" d="M334 434T313 439T253 444T187 432T145 390T127 330T123 246Q123 133 148 90T261 47Q308 47 337 59T380 99T398 159T402 234T402 296T398 339T390 377T374 405T349 427ZM342 500T385 480T449
404T470 262T452 123T402 43Q342 -11 262 -11Q145 -11 100 44T55 245Q55 315 74 367T125 446Q187 500 264 500ZM356 596Q337 581 328 580T311 578T284 583L199 603L124 571L106 599L148 634Q169 652 176 653T191 655T216 651L311 629L385 664L403 635L356 596Z"
/>
<glyph unicode="&#xf6;" glyph-name="odieresis" horiz-adv-x="526" d="M334 434T313 439T253 444T187 432T145 390T127 330T123 246Q123 133 148 90T261 47Q308 47 337 59T380 99T398 159T402 234T402 296T398 339T390 377T374 405T349 427ZM342 500T385 480T449
404T470 262T452 123T402 43Q342 -11 262 -11Q145 -11 100 44T55 245Q55 315 74 367T125 446Q187 500 264 500ZM146 658H218V584H146V658ZM292 658H364V584H292V658Z" />
<glyph unicode="&#xf7;" glyph-name="divide" horiz-adv-x="527" d="M67 269V328H460V269H67ZM306 501V410H221L222 501H306ZM306 186V95H221L222 186H306Z" />
<glyph unicode="&#xf8;" glyph-name="oslash" horiz-adv-x="526" d="M104 -51L375 556L428 533L158 -74L104 -51ZM334 434T313 439T253 444T187 432T145 390T127 330T123 246Q123 133 148 90T261 47Q308 47 337 59T380 99T398 159T402 234T402 296T398 339T390
377T374 405T349 427ZM342 500T385 480T449 404T470 262T452 123T402 43Q342 -11 262 -11Q145 -11 100 44T55 245Q55 315 74 367T125 446Q187 500 264 500Z" />
<glyph unicode="&#xf9;" glyph-name="ugrave" horiz-adv-x="524" d="M75 492H140V141Q141 91 167 71T244 51T333 70T379 106V492H443V129L461 0H419L416 3L395 59Q356 33 339 23T290 2T221 -9Q78 -9 75 142V492ZM173 671L221 716Q259 674 284 655Q319 628 344
611L365 597Q360 590 351 582T337 568L269 596Q215 633 173 671Z" />
<glyph unicode="&#xfa;" glyph-name="uacute" horiz-adv-x="524" d="M75 492H140V141Q141 91 167 71T244 51T333 70T379 106V492H443V129L461 0H419L416 3L395 59Q356 33 339 23T290 2T221 -9Q78 -9 75 142V492ZM348 719L396 674Q354 636 300 599L232 571Q227
577 218 585T204 600L224 614Q285 655 307 677T348 719Z" />
<glyph unicode="&#xfb;" glyph-name="ucircumflex" horiz-adv-x="524" d="M75 492H140V141Q141 91 167 71T244 51T333 70T379 106V492H443V129L461 0H419L416 3L395 59Q356 33 339 23T290 2T221 -9Q78 -9 75 142V492ZM269 674L163 587L135 617L239 723H299L403
617L374 587L269 674Z" />
<glyph unicode="&#xfc;" glyph-name="udieresis" horiz-adv-x="524" d="M75 492H140V141Q141 91 167 71T244 51T333 70T379 106V492H443V129L461 0H419L416 3L395 59Q356 33 339 23T290 2T221 -9Q78 -9 75 142V492ZM154 658H226V584H154V658ZM300 658H372V584H300V658Z" />
<glyph unicode="&#xfd;" glyph-name="yacute" horiz-adv-x="497" d="M19 -144Q55 -154 80 -154Q159 -152 186 -81L216 -1L25 492H97L249 70L398 492H468L248 -101Q207 -202 98 -202Q52 -202 -4 -184L19 -144ZM304 719L352 674Q310 636 256 599L188 571Q183 577
174 585T160 600L180 614Q241 655 263 677T304 719Z" />
<glyph unicode="&#xfe;" glyph-name="thorn" horiz-adv-x="512" d="M78 -201V736H140V447Q200 500 263 500T365 482T423 426Q457 361 457 252Q457 183 440 131T400 53T346 11Q303 -12 253 -12T140 13V-201H78ZM140 67Q196 47 246 47T322 59T361 88T380 134Q389
174 389 238Q389 357 369 399T269 441T140 385V67Z" />
<glyph unicode="&#xff;" glyph-name="ydieresis" horiz-adv-x="497" d="M19 -144Q55 -154 80 -154Q159 -152 186 -81L216 -1L25 492H97L249 70L398 492H468L248 -101Q207 -202 98 -202Q52 -202 -4 -184L19 -144ZM134 658H206V584H134V658ZM280 658H352V584H280V658Z" />
<glyph unicode="&#x2013;" glyph-name="endash" horiz-adv-x="561" d="M66 270V329H495V270H66Z" />
<glyph unicode="&#x2014;" glyph-name="emdash" horiz-adv-x="868" d="M76 270V329H792V270H76Z" />
<glyph unicode="&#x2018;" glyph-name="quoteleft" horiz-adv-x="211" d="M124 447H64V501Q65 555 69 577T85 613T117 645T142 667L168 644Q141 610 127 579L124 503V447Z" />
<glyph unicode="&#x2019;" glyph-name="quoteright" horiz-adv-x="208" d="M91 667H151V613Q151 569 151 552T138 513T118 485T73 447L47 470Q76 508 88 535L91 612V667Z" />
<glyph unicode="&#x201a;" glyph-name="quotesinglbase" horiz-adv-x="214" d="M69 92H144L145 1L92 -126H43L69 1V92Z" />
<glyph unicode="&#x201c;" glyph-name="quotedblleft" horiz-adv-x="334" d="M247 447H186V501Q187 579 197 599T252 657L264 667L291 644Q265 610 249 579L247 503V447ZM124 447H64V501Q65 555 69 577T85 613T117 645T142 667L168 644Q141 610 127 579L124 503V447Z" />
<glyph unicode="&#x201d;" glyph-name="quotedblright" horiz-adv-x="330" d="M91 667H151V613Q151 569 151 552T138 513T118 485T73 447L47 470Q76 508 88 535L91 612V667ZM213 667H274L273 613Q273 539 264 518T208 457Q200 451 196 447L169 470Q198 508 211
535L213 612V667Z" />
<glyph unicode="&#x201e;" glyph-name="quotedblbase" horiz-adv-x="384" d="M69 92H144L145 1L92 -126H43L69 1V92ZM239 92H314L315 1L262 -126H213L239 1V92Z" />
<glyph unicode="&#x2022;" glyph-name="bullet" horiz-adv-x="356" d="M85 397T113 421T184 445T248 422T270 346T243 270T176 247T110 268T85 343Z" />
<glyph unicode="&#x2039;" glyph-name="guilsinglleft" horiz-adv-x="306" d="M137 301Q116 280 116 268T137 231L249 111L206 71L43 248V286L205 462L250 424L137 301Z" />
<glyph unicode="&#x203a;" glyph-name="guilsinglright" horiz-adv-x="306" d="M169 231Q190 256 190 268T169 301L56 424L101 462L263 286V248L100 71L57 111L169 231Z" />
</font>
</defs>
</svg>
